Skip to main content

Backyard Tire Fire Live at The Brown Baer on 2009-04-26




Disc 1 (74:18.26)
01. intro
02. Cigarettes And Coffee
03. Food For Thought
04. More Than A Lot - Better Days
05. Brady
06. I Only Cry
07. Lost In Durango
08. I Was Drunk
09. Sick Of Debt
10. Sadness
11. White On My Walls
12. Seasons Turn
13. Thick Skin
14. Tryin' To Get Paid
15. Knockin' On The Doghouse Door
16. Good To Be
17. Lawyers Guns & Money

18. set 2 intro
19. Doin' What I Can To Get Through
20. Grey Sky Blues
21. Black Rose

Disc 2 (74:36.43)
22. Lightnin'
23. Ready Or Not
24. Road Song #39
25. I'm Wonderin'
26. Lines
27. Time With You
28. Shouldn't'a Took More Than You Gave
29. Piss And Moan
30. Skin And Bones And Soul
31. King Of The Road
32. Green Eyed Soul
33. Jimmy And Bob And Jack
34. Shoulda Shut It
35. One Wrong Turn
36. Cinnamon Girl
37. How In The Hell'd You Get Back Here?
38. encore break
39. Running Down A Dream


Collection BackyardTireFire
Band/Artist Backyard Tire Fire
Date April 26, 2009
Venue The Brown Baer
Location Elkhart Lake WI USA

Source Neumann KM140 (Audience recording)
Lineage WAV > FLAC
Taped by morst
Transferred by morst


Notes

Sunday April 26, 2009

Source:
Neumann KM140's > Beyer MV100 > Zoom H2 @24-bit/48kHz WAV
mics clamped to ceiling, 9 joists back from speakers

Transfer:
WAV > Audacity 1.2.6a > xACT 1.64 > FLAC level 8

Taper: TAS aka morst

1 song video by morst with lower-quality audio from the camera's built-in mic:


SHNTOOL:
length expanded size cdr WAVE problems fmt ratio filename
0:48.24 8523692 B --- -- ---xx BTF2009-04-26d1t01.flac
2:12.31 23357756 B --- -- ---xx BTF2009-04-26d1t02.flac
3:52.33 41002460 B --- -- ---xx BTF2009-04-26d1t03.flac
5:24.61 57297116 B --- -- ---xx BTF2009-04-26d1t04.flac
4:07.53 43695500 B --- -- ---xx BTF2009-04-26d1t05.flac
2:19.20 24566684 B --- -- ---xx BTF2009-04-26d1t06.flac
3:57.48 41919740 B --- -- ---xx BTF2009-04-26d1t07.flac
4:39.40 49309724 B --- -- ---xx BTF2009-04-26d1t08.flac
2:23.00 25225244 B --- -- ---xx BTF2009-04-26d1t09.flac
3:48.61 40362716 B --- -- ---xx BTF2009-04-26d1t10.flac
4:53.23 51739340 B --- -- ---xx BTF2009-04-26d1t11.flac
5:40.61 60119516 B --- -- ---xx BTF2009-04-26d1t12.flac
3:58.21 42032636 B --- -- ---xx BTF2009-04-26d1t13.flac
3:47.17 40082828 B --- -- ---xx BTF2009-04-26d1t14.flac
2:58.20 31446284 B --- -- ---xx BTF2009-04-26d1t15.flac
3:32.50 37514444 B --- -- ---xx BTF2009-04-26d1t16.flac
4:42.40 49838924 B --- -- ---xx BTF2009-04-26d1t17.flac
0:25.58 4546460 B --- -- ---xx BTF2009-04-26d1t18.flac
5:15.00 55566044 B --- -- ---xx BTF2009-04-26d1t19.flac
3:00.72 31921388 B --- -- ---xx BTF2009-04-26d1t20.flac
2:29.43 26384780 B --- -- ---xx BTF2009-04-26d1t21.flac
4:31.01 47806796 B --- -- ---xx BTF2009-04-26d2t01.flac
4:09.46 44031836 B --- -- ---xx BTF2009-04-26d2t02.flac
3:34.01 37751996 B --- -- ---xx BTF2009-04-26d2t03.flac
3:00.66 31907276 B --- -- ---xx BTF2009-04-26d2t04.flac
2:45.73 29277740 B --- -- ---xx BTF2009-04-26d2t05.flac
2:53.02 30521948 B --- -- ---xx BTF2009-04-26d2t06.flac
6:46.50 71736044 B --- -- ---xx BTF2009-04-26d2t07.flac
3:34.55 37879004 B --- -- ---xx BTF2009-04-26d2t08.flac
4:27.63 47247020 B --- -- ---xx BTF2009-04-26d2t09.flac
3:31.53 37345100 B --- -- ---xx BTF2009-04-26d2t10.flac
3:25.18 36204380 B --- -- ---xx BTF2009-04-26d2t11.flac
6:07.70 64903484 B --- -- ---xx BTF2009-04-26d2t12.flac
3:26.41 36434876 B --- -- ---xx BTF2009-04-26d2t13.flac
5:50.71 61907036 B --- -- ---xx BTF2009-04-26d2t14.flac
4:55.26 52099196 B --- -- ---xx BTF2009-04-26d2t15.flac
4:48.51 50923196 B --- -- ---xx BTF2009-04-26d2t16.flac
0:46.39 8206172 B --- -- ---xx BTF2009-04-26d2t17.flac
5:59.67 63485228 B --- -- ---xx BTF2009-04-26d2t18.flac
148:54.69 1576121604 B 0.5314 (39 files)

Reviews

Reviewer: Eric Simpson - - June 16, 2009
Subject: righteous
I can't write 'em like TAS aka morst but I know this stuff is some of the best out there, period. good job on the recordings, thank you.
Reviewer: morst - - April 30, 2009
Subject: Great guitars in a neat little club
The setup was not conducive to making a board tape, so this is a pure stereo audience recording. Guitars are crunchy and thick, the bass has some very nice low thunder, and the drums sound darn good in the room. The vocals are not overly present, but are clear and audible in the mix.

The Brown Baer is a super cool bar (with excellent food) in the resort town of Elkhart Lake, Wisconsin. This show took place on a rainy sunday night well outside of tourist season. The club holds less than 100 people, and was not full, but the band played two sets totaling nearly two and half hours. The setlist contains a nice mix of new stuff from the recent recording session with Steve Berlin, older, more familiar songs, and some choice covers.

The band for this occasion includes brothers Matt and Ed Anderson on bass and guitar respectively, Tim Kramp on drums, and also features Scott Tipping on guitar and vocals. Scott and Ed used to host a regular open mic night, so they have a very tight musical chemistry. Also, the both play sunburst Les Paul guitars for much of the show.

Which reminds me to mention that first set of this one started with Ed on acoustic guitar for a bunch of songs in a row. Then it was all electric for the rest of the night.

Top notch to my ears.
five big'nz!!!!!
*****
DOWNLOAD OPTIONS
VBR MP3
BACK
1.1M
intro
1.2M
intro
5.8M
Brady
6.0M
Brady
3.8M
Lines
3.9M
Lines
Uploaded by
morst
on 4/29/2009
Views
1,777
Favorites
1
Reviews
2
PEOPLE ALSO FOUND
Backyard Tire Fire
by Backyard Tire Fire
479
0
2
( 2 reviews )
Source: AKG C522S > Grace V3 + SBD > Edirol R44
Backyard Tire Fire
by Backyard Tire Fire
230
1
0
Source: SBD + The Pickle Mic > Grace V3 > Edirol R44 > WAV @24/48
Backyard Tire Fire
by Backyard Tire Fire
1,602
1
2
( 2 reviews )
Source: SBD + Audience Matrix
Backyard Tire Fire
by Backyard Tire Fire
1,046
1
0
Source: Neumann KM140's ORTF on tall stand at SBD > Grace V3 + Soundcraft GB8 SBD > Edirol R44
Backyard Tire Fire
by Backyard Tire Fire
371
1
1
( 1 reviews )
Source: Neumann KM140's > Beyer MV100 > Zoom H2 > WAV @24-bit/48kHz + SBD > Edirol R44 > Sony PCM-M1 > DAT @16-bit/48kHz KM140's ORTF, clamped to lighting rig, FoB, approx 10' from stage, 9' high
Backyard Tire Fire
by Backyard Tire Fire
390
1
0
Source: matrix
Backyard Tire Fire
by Backyard Tire Fire
233
1
0
Source: Neumann KM140's > Marantz PMD661 (Oade mod) > WAV @24/48
Backyard Tire Fire
by Backyard Tire Fire
1,616
1
2
( 2 reviews )
Source: SBD + Audience Matrix
Backyard Tire Fire
by Backyard Tire Fire
1,414
1
1
( 1 reviews )
Source: Neumann KM140's > Beyer MV100 > Zoom H2 > WAV
Backyard Tire Fire
by Backyard Tire Fire
1,561
1
0
Source: Antenna > Zenith DTT901 Digital TV Tuner Converter Box > RCA audio outputs > Zoom H2 > WAV @24bit/48kHz